<?xml version="1.0" standalone="no"?>
<!DOCTYPE svg PUBLIC "-//W3C//DTD SVG 1.1//EN" "http://www.w3.org/Graphics/SVG/1.1/DTD/svg11.dtd" >
<svg xmlns="http://www.w3.org/2000/svg">
<metadata></metadata>
<defs>
<font id="adam.cg_proregular" horiz-adv-x="1423" >
<font-face units-per-em="2048" ascent="1536" descent="-512" />
<missing-glyph horiz-adv-x="614" />
<glyph horiz-adv-x="0" />
<glyph horiz-adv-x="682" />
<glyph horiz-adv-x="0" />
<glyph horiz-adv-x="0" />
<glyph unicode="&#xd;" horiz-adv-x="614" />
<glyph unicode=" "  horiz-adv-x="614" />
<glyph unicode="&#x09;" horiz-adv-x="614" />
<glyph unicode="&#xa0;" horiz-adv-x="614" />
<glyph unicode="!" horiz-adv-x="567" d="M123 1602h321l-49 -1229q-46 24 -110 24q-63 0 -113 -26zM147 135q0 57 40.5 97t97.5 40q56 0 95.5 -40t39.5 -97q0 -55 -40 -95t-95 -40q-57 0 -97.5 39.5t-40.5 95.5z" />
<glyph unicode="&#x22;" horiz-adv-x="763" d="M147 1139l25 381h213l-94 -381h-144zM414 1139l24 381h213l-94 -381h-143z" />
<glyph unicode="#" horiz-adv-x="1767" d="M160 367v237h305l84 311h-248v238h311l117 436h246l-117 -436h326l116 436h246l-116 -436h235v-238h-299l-82 -311h240v-237h-303l-99 -367h-248l99 367h-324l-98 -367h-248l98 367h-241zM713 604h323l84 311h-325z" />
<glyph unicode="$" horiz-adv-x="1095" d="M86 203l197 153q71 -90 157 -123q16 -7 56 -16v490q-3 4 -13 14l-192 184q-88 83 -125 191q-31 103 -2 200q27 102 117 179q81 69 190 90q16 4 25 4v135h143v-139q27 -5 68 -19q125 -47 215 -162l-195 -155q-39 52 -88 76v-387l88 -89q76 -72 123 -114q99 -95 137 -209 q35 -109 4 -221q-32 -115 -128 -199.5t-224 -110.5v-139h-143v131q-76 6 -146 33q-154 60 -264 203zM401 1227q-18 -66 62 -142l33 -32v262q-34 -12 -60 -35.5t-35 -52.5zM639 236q92 42 113 116q24 89 -72 180q-14 12 -41 39v-335z" />
<glyph unicode="%" horiz-adv-x="1437" d="M125 1161q0 151 47 240q26 54 76 86q47 33 114 33t117 -33q48 -33 74 -86q47 -84 47 -240q0 -150 -47 -239q-26 -54 -76 -86q-54 -33 -115 -33q-60 0 -114 33q-45 29 -76 86q-47 89 -47 239zM205 0l829 1520h197l-830 -1520h-196zM238 1161q0 -122 34 -186q29 -60 90 -60 q59 0 93 60q32 60 32 186q0 129 -32 189q-32 57 -93 57q-62 0 -90 -57q-34 -64 -34 -189zM838 358q0 156 47 240q26 54 73 86q50 33 117 33q68 0 115 -33q45 -29 76 -86q47 -89 47 -240q0 -150 -47 -239q-26 -54 -76 -86q-47 -33 -115 -33q-67 0 -117 33q-45 29 -73 86 q-47 84 -47 239zM950 358q0 -126 33 -188q34 -57 92 -57q61 0 90 57q35 65 35 188q0 124 -35 189q-29 57 -90 57q-58 0 -92 -57q-33 -62 -33 -189z" />
<glyph unicode="&#x26;" horiz-adv-x="1210" d="M96 475q0 169 119 301q29 29 59 53q-45 43 -73 93q-51 83 -51 192q0 91 38 166q38 74 105 129q133 111 319 111q119 0 222 -47q119 -58 182 -158l-189 -123q-32 49 -90 76q-60 26 -125 26q-106 0 -174 -59q-63 -51 -63 -121q0 -89 94 -147q134 -82 424 -82v-226 q-224 0 -381 46q-84 -26 -137 -90t-53 -140q0 -95 86 -168q99 -80 235 -80q127 0 219 70v201h228v-602h-228v145q-98 -39 -219 -39q-224 0 -379 131q-74 60 -121 152q-47 89 -47 190z" />
<glyph unicode="'" horiz-adv-x="440" d="M135 1139l25 381h213l-94 -381h-144z" />
<glyph unicode="(" horiz-adv-x="716" d="M68 758q0 312 104 579q101 266 283 451l168 -168q-146 -149 -230 -367q-88 -235 -88 -495q0 -261 88 -496q83 -216 230 -366l-168 -168q-183 186 -283 450q-104 267 -104 580z" />
<glyph unicode=")" horiz-adv-x="716" d="M94 -104q145 145 230 366q88 235 88 496q0 260 -88 495q-86 223 -230 367l168 168q180 -183 285 -451q102 -270 102 -579q0 -310 -102 -580q-103 -264 -283 -450z" />
<glyph unicode="*" horiz-adv-x="604" d="M74 1305l41 149l137 -65l-25 131h154l-23 -123l121 57l41 -149l-125 -9l88 -104l-133 -76l-45 127l-45 -127l-133 76l86 102z" />
<glyph unicode="+" horiz-adv-x="1265" d="M160 657v205h370v371h205v-371h371v-205h-371v-370h-205v370h-370z" />
<glyph unicode="," horiz-adv-x="516" d="M111 143q0 59 41.5 100.5t101.5 41.5q59 0 101 -42t42 -100q0 -26 -10 -53l-108 -309h-82l49 219q-57 3 -96 44t-39 99z" />
<glyph unicode="-" horiz-adv-x="956" d="M160 657v205h639v-205h-639z" />
<glyph unicode="." horiz-adv-x="516" d="M111 143q0 59 41.5 101.5t101.5 42.5q58 0 100.5 -42.5t42.5 -101.5q0 -60 -42 -101.5t-101 -41.5q-60 0 -101.5 41.5t-41.5 101.5z" />
<glyph unicode="/" horiz-adv-x="1005" d="M160 -199l448 1901h238l-449 -1901h-237z" />
<glyph unicode="0" horiz-adv-x="1396" d="M113 762q0 294 135 506q79 117 184 180q118 72 266 72q150 0 265 -72q111 -64 184 -184q137 -210 137 -506q0 -292 -135 -504q-74 -117 -182 -182q-123 -72 -265 -72q-143 0 -266 72q-106 62 -186 184q-137 210 -137 506zM350 762q0 -106 26.5 -205t72.5 -172 q96 -147 253 -147q154 0 246 145q96 148 96 375q0 226 -96 377q-94 147 -250 147q-157 0 -249 -145q-46 -71 -72.5 -170t-26.5 -205z" />
<glyph unicode="1" horiz-adv-x="727" d="M2 1096l567 424v-1520h-237v1047l-189 -142z" />
<glyph unicode="2" horiz-adv-x="1251" d="M63 0l148 193q320 423 563 747q69 94 82 172q6 57 -16 92q-25 41 -78 62t-113 12q-72 -13 -119 -57q-58 -55 -79 -144l-213 125q43 115 131 197q107 96 243 117q132 20 253 -31.5t182 -155.5q68 -112 47 -252q-18 -138 -127 -280q-289 -386 -418 -555h581v-242h-1067z " />
<glyph unicode="3" horiz-adv-x="1292" d="M109 184l135 195q168 -118 321.5 -138t259.5 60q77 59 110 150t5 174q-27 78 -102 123q-92 57 -256 57l-203 -2l262 481h-436v236h837l-272 -496q106 -24 193 -74q146 -90 200 -250q54 -153 -2 -321q-59 -166 -192 -266q-150 -113 -346 -113h-35q-234 15 -479 184z" />
<glyph unicode="4" horiz-adv-x="1247" d="M2 266l997 1333v-1095h144v-238h-144v-266h-237v266h-760zM479 504h283v379z" />
<glyph unicode="5" horiz-adv-x="1273" d="M96 182l133 197q198 -135 363 -141q130 -6 213 65q66 54 88 137q19 85 -10 154q-42 90 -150 133q-141 60 -379 29l-153 -23l98 787h725v-236h-516l-35 -280q194 6 350 -58q201 -83 275 -256q65 -146 25 -305.5t-167 -263.5q-145 -121 -348 -121h-26q-236 9 -486 182z" />
<glyph unicode="6" horiz-adv-x="1226" d="M141 746.5q28 273.5 174 482.5q112 155 258 227q154 77 332 62v-240q-122 18 -225 -35q-98 -48 -170 -151q-56 -78 -94 -193q101 49 231 49q235 0 365 -141q121 -127 121 -315q0 -91 -31.5 -178t-89.5 -154q-66 -77 -157 -118.5t-193 -41.5q-148 0 -263 70t-182 202 q-104 201 -76 474.5zM385 514q12 -72 43 -133q73 -143 234 -143q103 0 169 75q64 76 64 179q0 96 -55 151q-65 68 -193 68q-145 0 -219 -105q-34 -50 -43 -92z" />
<glyph unicode="7" horiz-adv-x="1122" d="M139 0l590 1282h-586v238h959l-701 -1520h-262z" />
<glyph unicode="8" horiz-adv-x="1243" d="M115 467q0 191 133 324q7 7 37 32q-119 116 -119 287q0 169 121 287q132 123 340 123q207 0 334 -127q118 -118 118 -287q0 -166 -116 -285q6 -5 18 -16.5t18 -16.5q129 -135 129 -321q0 -190 -129 -322q-134 -145 -368 -145q-238 0 -381 143q-135 132 -135 324zM352 467 q0 -93 64 -154q75 -75 215 -75q125 0 198 73q60 60 60 156q0 94 -62 156q-70 73 -200 73q-113 0 -194 -59t-81 -170zM403 1110q0 -67 50 -117q62 -59 178 -59q106 0 157.5 51.5t51.5 120.5q0 72 -47 119q-60 57 -166 57q-114 0 -174 -57q-50 -47 -50 -115z" />
<glyph unicode="9" horiz-adv-x="1228" d="M96 1028q0 91 32 178.5t89 155.5q66 76 157 117t195 41q146 0 260.5 -70t182.5 -201q105 -201 76.5 -475t-175.5 -481q-109 -154 -258 -230q-75 -37 -169.5 -53t-186.5 -8v240q63 -8 131.5 1t118.5 33q100 50 170 154q54 75 96 193q-110 -52 -233 -52q-228 0 -365 142 q-121 127 -121 315zM334 1028q0 -90 55 -151q68 -68 193 -68q147 0 219 106q28 36 45 93q-16 74 -45 131q-73 143 -232 143q-105 0 -172 -76q-63 -76 -63 -178z" />
<glyph unicode=":" horiz-adv-x="516" d="M111 143q0 59 41.5 101.5t101.5 42.5q58 0 100.5 -42.5t42.5 -101.5q0 -60 -42 -101.5t-101 -41.5q-60 0 -101.5 41.5t-41.5 101.5zM111 948q0 60 41.5 102t101.5 42q59 0 101 -42t42 -102q0 -58 -42.5 -100.5t-100.5 -42.5q-60 0 -101.5 42t-41.5 101z" />
<glyph unicode=";" horiz-adv-x="516" d="M111 143q0 59 41.5 100.5t101.5 41.5q59 0 101 -42t42 -100q0 -26 -10 -53l-108 -309h-82l49 219q-57 3 -96 44t-39 99zM111 948q0 60 41.5 102t101.5 42q59 0 101 -42t42 -102q0 -58 -42.5 -100.5t-100.5 -42.5q-60 0 -101.5 42t-41.5 101z" />
<glyph unicode="&#x3c;" horiz-adv-x="1056" d="M160 764l448 450h289l-451 -452l451 -457h-289z" />
<glyph unicode="=" horiz-adv-x="1163" d="M160 471v205h846v-205h-846zM160 844v205h846v-205h-846z" />
<glyph unicode="&#x3e;" horiz-adv-x="1056" d="M160 305l448 457l-448 452h286l451 -450l-451 -459h-286z" />
<glyph unicode="?" horiz-adv-x="1206" d="M102 1145q6 163 103 280q93 112 250 154q87 23 163 23q129 0 240.5 -49.5t175.5 -135.5q92 -125 62 -284q-35 -164 -193 -342l-37 -37q-78 -78 -123 -158q-59 -109 -65 -225q-58 28 -129 28q-73 0 -123 -28q9 174 96 327q52 96 156 205q12 10 29 27q102 115 131 205 q34 94 -15 159q-37 52 -121 74q-45 10 -84 10q-48 0 -88 -12q-74 -18 -118 -68q-55 -61 -58 -153h-252zM410 137q0 57 40 97t97 40t97 -40t40 -97t-40 -97t-97 -40t-97 40t-40 97z" />
<glyph unicode="@" horiz-adv-x="1320" d="M117 420q37 268 37 270q18 128 88 238q65 99 164 164q92 60 201 84.5t216 9.5q90 -12 162 -49q75 -40 131 -105q118 -142 90 -360l-39 -271q-18 -135 -77 -221q-55 -80 -129 -110q-47 -20 -95 -16t-82 30q-50 38 -47 102h-151q-100 0 -160 64q-56 65 -41 168 q12 89 74 151q69 66 172 66h170l6 55q9 60 -39 80q-40 19 -101 6t-92 -53l-108 86q63 75 168 100q107 23 188 -14q67 -29 99.5 -88.5t21.5 -134.5l-67 -482q18 0 36 9q14 6 28.5 18t33 36t34 67.5t23.5 99.5l37 270q12 80 -4 150q-14 56 -53 104q-76 89 -207 107 q-82 9 -166 -9q-87 -18 -158 -65q-162 -107 -190 -305l-39 -271q-21 -160 61 -254q54 -63 166 -102q136 -47 342 -47v-137q-232 0 -387 55q-144 51 -225 143q-69 78 -90 187q-14 79 -2 174zM508 401q-6 -48 12 -69q18 -23 66 -23h168l28 201h-151q-55 0 -86 -31 q-31 -28 -37 -78z" />
<glyph unicode="A" d="M51 0l662 1589l659 -1589h-260l-129 326h-541l-129 -326h-262zM528 539h369l-184 462z" />
<glyph unicode="B" horiz-adv-x="1204" d="M160 0v1520h237h99q246 0 376 -95q69 -51 105 -131q31 -73 31 -159q0 -155 -119 -279q22 -14 69 -55q68 -67 105 -150q39 -88 39 -200q0 -114 -49 -205q-50 -87 -140 -146q-158 -100 -417 -100h-136h-200zM397 215h99q197 0 301 66q92 60 92 170q0 117 -80 194 q-46 46 -117 76q-7 -3 -28.5 -12.5t-34.5 -14.5q-90 -37 -232 -69v-410zM397 846q85 18 156 49q118 48 176 106q64 61 64 134q0 83 -50 118q-72 54 -247 54h-99v-461z" />
<glyph unicode="C" horiz-adv-x="1386" d="M96 760q0 152 60 297q60 138 163 241q108 108 242 162q135 60 295 60q159 0 297 -60q5 -2 16.5 -7t16.5 -7v-281q-142 117 -330 117q-105 0 -200.5 -39.5t-168.5 -114.5q-74 -74 -113.5 -169t-39.5 -199t39.5 -199.5t113.5 -169.5t169.5 -113.5t199.5 -39.5t199.5 39.5 t169.5 113.5q23 23 51 58v-324q-65 -42 -123 -66q-142 -59 -297 -59q-156 0 -295 59q-135 57 -242 164q-105 105 -163 242q-60 142 -60 295z" />
<glyph unicode="D" horiz-adv-x="1382" d="M160 0v1520h237h123q189 0 332 -60q143 -55 244 -168q184 -202 184 -532q0 -331 -184 -533q-101 -113 -244 -168q-148 -59 -332 -59h-280h-80zM397 238h123q263 0 400 149q122 134 122 373t-122 373q-134 149 -400 149h-123v-1044z" />
<glyph unicode="E" horiz-adv-x="1191" d="M160 0v1520h235h676v-213h-674v-406h555v-215h-555v-471h674v-215h-676h-235z" />
<glyph unicode="F" horiz-adv-x="1193" d="M160 0v1520h235h678v-213h-676v-406h555v-215h-555v-686h-237z" />
<glyph unicode="G" horiz-adv-x="1454" d="M100 760v39q10 140 60 258q59 136 164 241q109 109 241 162q135 60 295 60h19h2h16h2q13 0 19 -2q134 -9 256 -64q0 -2 2 -2l12 -6h2v-281q-41 36 -103 66q-56 25 -94 35q-4 0 -6 2h-6q-2 2 -8 2q-2 0 -4 2q-4 1 -13.5 2t-13.5 2h-4q-1 0 -4 1t-4 1h-4q-6 0 -8 2h-7h-12 q-1 0 -3 1t-3 1h-6h-8h-5h-14q-147 0 -268 -74q-2 -2 -10 -6q-48 -29 -90 -74q-2 -2 -12 -11t-15 -15q0 -2 -2 -2q-12 -14 -27 -37l-4 -4q-2 -3 -6 -9.5t-6 -9.5q-4 -4 -4 -8q-46 -73 -64 -155q-2 -2 -2 -5q-8 -39 -10 -61v-23q-2 -10 -2 -28q0 -17 2 -27q3 -60 18 -115 q38 -131 134 -227q74 -74 169 -113.5t199 -39.5h14q5 0 7 2h8h6h6h10q0 2 4 2h9h4q7 1 22.5 4t22.5 4q2 0 4 2q6 0 8 2h6q2 2 6 2q2 2 9 2l4 2q44 12 84 33h2v280h-287v215h524v-215v-411l-53 -37q-2 0 -4 -2q-4 -4 -8 -4q-4 -4 -6 -4q-4 -4 -9 -4q-6 -6 -8 -7q-1 -1 -3 -2 t-3 -2t-3 -2t-3 -2q-2 -1 -5 -2t-5 -2q-1 -1 -3 -2t-3 -2q-4 -4 -11 -4l-4 -4h-4q-2 -2 -10 -6q-2 -1 -7 -3t-7 -3q-1 0 -3 -2q-125 -57 -272 -66h-2h-16h-2h-19q-129 0 -239 39h-3q-4 1 -11 4t-11 4q-5 2 -15.5 6t-15.5 6q-31 12 -73 37q-96 52 -168 127q-107 107 -164 242 q-48 115 -56 219q-4 50 -4 76z" />
<glyph unicode="H" horiz-adv-x="1398" d="M160 0v1520h237v-650h607v650h237v-1520h-237v655h-607v-655h-237z" />
<glyph unicode="I" horiz-adv-x="552" d="M160 0v1520h237v-1520h-237z" />
<glyph unicode="J" horiz-adv-x="860" d="M82 6v244q46 -12 96 -12q134 0 217 67q84 72 84 211v1004h240v-1004q0 -247 -172 -393q-145 -123 -369 -123q-50 0 -96 6z" />
<glyph unicode="K" horiz-adv-x="1337" d="M160 0v1520h237v-627l488 627h299l-557 -732l669 -788h-297l-602 688v-688h-237z" />
<glyph unicode="L" horiz-adv-x="1046" d="M160 0v1520h237v-1305h635v-215h-637h-235z" />
<glyph unicode="M" horiz-adv-x="1746" d="M160 0v1589l714 -1065l715 1065v-1589h-239v807l-476 -709l-477 709v-807h-237z" />
<glyph unicode="N" horiz-adv-x="1511" d="M160 0v1591l954 -1046v975h240v-1590l-957 1047v-977h-237z" />
<glyph unicode="O" horiz-adv-x="1738" d="M111 760q0 155 59 297q57 130 164 241q104 104 241 162q142 60 295 60q152 0 297 -60q136 -59 242 -162q104 -107 162 -241q59 -142 59 -297q0 -156 -59 -295t-162 -242q-110 -107 -242 -164q-142 -59 -297 -59q-156 0 -295 59q-134 57 -241 164t-164 242 q-59 139 -59 295zM348 760q0 -104 40 -199.5t114 -169.5t169 -113.5t199 -39.5t199.5 39.5t169.5 113.5t114 169.5t40 199.5t-40 199t-114 169t-169.5 114t-199.5 40t-199 -40t-169 -114t-114 -169t-40 -199z" />
<glyph unicode="P" horiz-adv-x="1148" d="M160 0v1520h200h250q244 0 379 -150q123 -135 123 -352q0 -220 -123 -352q-132 -152 -379 -152h-213v-514h-237zM397 729h213q147 0 221 80q68 75 68 209q0 132 -68 207q-76 82 -221 82h-213v-578z" />
<glyph unicode="Q" horiz-adv-x="1732" d="M96 760q0 152 60 297q60 138 163 241t242 162q135 60 295 60q159 0 297 -60q141 -61 242 -162q100 -100 161 -241q60 -138 60 -297q0 -160 -60 -295q-60 -141 -161 -242q-3 -3 -8.5 -8t-8.5 -8l138 -180l-173 -129l-139 186q-8 -4 -25.5 -12.5t-25.5 -12.5 q-142 -59 -297 -59q-156 0 -295 59q-135 57 -242 164q-105 105 -163 242q-60 142 -60 295zM334 760q0 -104 39.5 -199.5t113.5 -169.5t169.5 -113.5t199.5 -39.5q107 0 203 41l-107 141l172 129l111 -150q143 152 143 361q0 104 -39.5 199t-113.5 169t-169.5 114t-199.5 40 t-199.5 -40t-169.5 -114t-113.5 -169t-39.5 -199z" />
<glyph unicode="R" horiz-adv-x="1312" d="M160 0v1520h200h250q247 0 379 -152q123 -135 123 -352q0 -215 -123 -350q-73 -80 -176 -117l410 -549h-269l-383 514h-174v-514h-237zM397 727h213q146 0 219 82q68 73 68 207q0 136 -68 209q-71 80 -219 80h-213v-578z" />
<glyph unicode="S" horiz-adv-x="1081" d="M98 227l189 148q67 -89 149 -119q44 -18 88 -18q25 0 51 6q58 10 102 45.5t58 81.5q5 17 5 34q0 67 -74 138q-95 88 -187 180l-186 176q-87 84 -117 182q-17 53 -17 105q0 45 13 88q26 96 113 170q81 68 182 86q41 9 83 8q71 0 142 -25q121 -48 207 -153l-186 -150 q-74 89 -165 89q-18 0 -36 -3q-40 -8 -71 -32t-40 -56q-3 -12 -3 -25q0 -53 61 -112l254 -244q48 -48 114 -110q99 -88 134 -199q19 -56 19 -113q0 -50 -15 -100q-32 -111 -125 -191.5t-217 -105.5q-41 -8 -93 -8q-98 0 -180 33q-147 60 -252 194z" />
<glyph unicode="T" horiz-adv-x="1196" d="M61 1307v213h1076v-213h-418v-1307h-240v1307h-418z" />
<glyph unicode="U" horiz-adv-x="1415" d="M145 516v1004h238v-1004q0 -135 94 -207q90 -71 232 -71q138 0 231 71q92 71 92 207v1004h240v-1004q0 -123 -51 -231q-51 -97 -136 -164q-155 -121 -376 -121q-222 0 -377 121q-87 66 -135 164q-52 104 -52 231z" />
<glyph unicode="V" horiz-adv-x="1449" d="M51 1520h262l428 -1002l400 1002h258l-651 -1588z" />
<glyph unicode="W" horiz-adv-x="2295" d="M84 1520h262l428 -1002l252 631l123 313l133 -309l270 -635l400 1002h260l-653 -1588l-402 916l-377 -916z" />
<glyph unicode="X" horiz-adv-x="1640" d="M117 0l553 813l-482 707h299l332 -488l334 488h299l-483 -707l555 -813h-299l-406 594l-403 -594h-299z" />
<glyph unicode="Y" horiz-adv-x="1409" d="M53 1520h277l377 -521l376 521h275l-533 -725v-795h-237v795z" />
<glyph unicode="Z" horiz-adv-x="1443" d="M104 0l781 1282h-611v238h1035l-781 -1282h760v-238h-1184z" />
<glyph unicode="[" horiz-adv-x="667" d="M160 -262v2040h454v-144h-217v-1753h217v-143h-454z" />
<glyph unicode="\" horiz-adv-x="1005" d="M160 1702h237l449 -1901h-238z" />
<glyph unicode="]" horiz-adv-x="665" d="M53 -119h217v1753h-217v144h455v-2040h-455v143z" />
<glyph unicode="^" horiz-adv-x="1026" d="M51 752l473 768l447 -768h-221l-232 366l-242 -366h-225z" />
<glyph unicode="_" horiz-adv-x="1597" d="M160 -143h1278v-205h-1278v205z" />
<glyph unicode="`" horiz-adv-x="462" d="M45 1520h225l101 -252h-150z" />
<glyph unicode="a" d="M51 0l662 1589l659 -1589h-260l-129 326h-541l-129 -326h-262zM528 539h369l-184 462z" />
<glyph unicode="b" horiz-adv-x="1204" d="M160 0v1520h237h99q246 0 376 -95q69 -51 105 -131q31 -73 31 -159q0 -155 -119 -279q22 -14 69 -55q68 -67 105 -150q39 -88 39 -200q0 -114 -49 -205q-50 -87 -140 -146q-158 -100 -417 -100h-136h-200zM397 215h99q197 0 301 66q92 60 92 170q0 117 -80 194 q-46 46 -117 76q-7 -3 -28.5 -12.5t-34.5 -14.5q-90 -37 -232 -69v-410zM397 846q85 18 156 49q118 48 176 106q64 61 64 134q0 83 -50 118q-72 54 -247 54h-99v-461z" />
<glyph unicode="c" horiz-adv-x="1386" d="M96 760q0 152 60 297q60 138 163 241q108 108 242 162q135 60 295 60q159 0 297 -60q5 -2 16.5 -7t16.5 -7v-281q-142 117 -330 117q-105 0 -200.5 -39.5t-168.5 -114.5q-74 -74 -113.5 -169t-39.5 -199t39.5 -199.5t113.5 -169.5t169.5 -113.5t199.5 -39.5t199.5 39.5 t169.5 113.5q23 23 51 58v-324q-65 -42 -123 -66q-142 -59 -297 -59q-156 0 -295 59q-135 57 -242 164q-105 105 -163 242q-60 142 -60 295z" />
<glyph unicode="d" horiz-adv-x="1382" d="M160 0v1520h237h123q189 0 332 -60q143 -55 244 -168q184 -202 184 -532q0 -331 -184 -533q-101 -113 -244 -168q-148 -59 -332 -59h-280h-80zM397 238h123q263 0 400 149q122 134 122 373t-122 373q-134 149 -400 149h-123v-1044z" />
<glyph unicode="e" horiz-adv-x="1191" d="M160 0v1520h235h676v-213h-674v-406h555v-215h-555v-471h674v-215h-676h-235z" />
<glyph unicode="f" horiz-adv-x="1091" d="M160 0v1520h235h678v-213h-676v-406h555v-215h-555v-686h-237z" />
<glyph unicode="g" horiz-adv-x="1454" d="M100 760v39q10 140 60 258q59 136 164 241q109 109 241 162q135 60 295 60h19h2h16h2q13 0 19 -2q134 -9 256 -64q0 -2 2 -2l12 -6h2v-281q-41 36 -103 66q-56 25 -94 35q-4 0 -6 2h-6q-2 2 -8 2q-2 0 -4 2q-4 1 -13.5 2t-13.5 2h-4q-1 0 -4 1t-4 1h-4q-6 0 -8 2h-7h-12 q-1 0 -3 1t-3 1h-6h-8h-5h-14q-147 0 -268 -74q-2 -2 -10 -6q-48 -29 -90 -74q-2 -2 -12 -11t-15 -15q0 -2 -2 -2q-12 -14 -27 -37l-4 -4q-2 -3 -6 -9.5t-6 -9.5q-4 -4 -4 -8q-46 -73 -64 -155q-2 -2 -2 -5q-8 -39 -10 -61v-23q-2 -10 -2 -28q0 -17 2 -27q3 -60 18 -115 q38 -131 134 -227q74 -74 169 -113.5t199 -39.5h14q5 0 7 2h8h6h6h10q0 2 4 2h9h4q7 1 22.5 4t22.5 4q2 0 4 2q6 0 8 2h6q2 2 6 2q2 2 9 2l4 2q44 12 84 33h2v280h-287v215h524v-215v-411l-53 -37q-2 0 -4 -2q-4 -4 -8 -4q-4 -4 -6 -4q-4 -4 -9 -4q-6 -6 -8 -7q-1 -1 -3 -2 t-3 -2t-3 -2t-3 -2q-2 -1 -5 -2t-5 -2q-1 -1 -3 -2t-3 -2q-4 -4 -11 -4l-4 -4h-4q-2 -2 -10 -6q-2 -1 -7 -3t-7 -3q-1 0 -3 -2q-125 -57 -272 -66h-2h-16h-2h-19q-129 0 -239 39h-3q-4 1 -11 4t-11 4q-5 2 -15.5 6t-15.5 6q-31 12 -73 37q-96 52 -168 127q-107 107 -164 242 q-48 115 -56 219q-4 50 -4 76z" />
<glyph unicode="h" horiz-adv-x="1398" d="M160 0v1520h237v-650h607v650h237v-1520h-237v655h-607v-655h-237z" />
<glyph unicode="i" horiz-adv-x="552" d="M160 0v1520h237v-1520h-237z" />
<glyph unicode="j" horiz-adv-x="860" d="M82 6v244q46 -12 96 -12q134 0 217 67q84 72 84 211v1004h240v-1004q0 -247 -172 -393q-145 -123 -369 -123q-50 0 -96 6z" />
<glyph unicode="k" horiz-adv-x="1390" d="M160 0v1520h237v-627l488 627h299l-557 -732l669 -788h-297l-602 688v-688h-237z" />
<glyph unicode="l" horiz-adv-x="1046" d="M160 0v1520h237v-1305h635v-215h-637h-235z" />
<glyph unicode="m" horiz-adv-x="1746" d="M160 0v1589l714 -1065l715 1065v-1589h-239v807l-476 -709l-477 709v-807h-237z" />
<glyph unicode="n" horiz-adv-x="1511" d="M160 0v1591l954 -1046v975h240v-1590l-957 1047v-977h-237z" />
<glyph unicode="o" horiz-adv-x="1738" d="M111 760q0 155 59 297q57 130 164 241q104 104 241 162q142 60 295 60q152 0 297 -60q136 -59 242 -162q104 -107 162 -241q59 -142 59 -297q0 -156 -59 -295t-162 -242q-110 -107 -242 -164q-142 -59 -297 -59q-156 0 -295 59q-134 57 -241 164t-164 242 q-59 139 -59 295zM348 760q0 -104 40 -199.5t114 -169.5t169 -113.5t199 -39.5t199.5 39.5t169.5 113.5t114 169.5t40 199.5t-40 199t-114 169t-169.5 114t-199.5 40t-199 -40t-169 -114t-114 -169t-40 -199z" />
<glyph unicode="p" horiz-adv-x="1148" d="M160 0v1520h200h250q244 0 379 -150q123 -135 123 -352q0 -220 -123 -352q-132 -152 -379 -152h-213v-514h-237zM397 729h213q147 0 221 80q68 75 68 209q0 132 -68 207q-76 82 -221 82h-213v-578z" />
<glyph unicode="q" horiz-adv-x="1732" d="M96 760q0 152 60 297q60 138 163 241t242 162q135 60 295 60q159 0 297 -60q141 -61 242 -162q100 -100 161 -241q60 -138 60 -297q0 -160 -60 -295q-60 -141 -161 -242q-3 -3 -8.5 -8t-8.5 -8l138 -180l-173 -129l-139 186q-8 -4 -25.5 -12.5t-25.5 -12.5 q-142 -59 -297 -59q-156 0 -295 59q-135 57 -242 164q-105 105 -163 242q-60 142 -60 295zM334 760q0 -104 39.5 -199.5t113.5 -169.5t169.5 -113.5t199.5 -39.5q107 0 203 41l-107 141l172 129l111 -150q143 152 143 361q0 104 -39.5 199t-113.5 169t-169.5 114t-199.5 40 t-199.5 -40t-169.5 -114t-113.5 -169t-39.5 -199z" />
<glyph unicode="r" horiz-adv-x="1312" d="M160 0v1520h200h250q247 0 379 -152q123 -135 123 -352q0 -215 -123 -350q-73 -80 -176 -117l410 -549h-269l-383 514h-174v-514h-237zM397 727h213q146 0 219 82q68 73 68 207q0 136 -68 209q-71 80 -219 80h-213v-578z" />
<glyph unicode="s" horiz-adv-x="1081" d="M98 227l189 148q67 -89 149 -119q44 -18 88 -18q25 0 51 6q58 10 102 45.5t58 81.5q5 17 5 34q0 67 -74 138q-95 88 -187 180l-186 176q-87 84 -117 182q-17 53 -17 105q0 45 13 88q26 96 113 170q81 68 182 86q41 9 83 8q71 0 142 -25q121 -48 207 -153l-186 -150 q-74 89 -165 89q-18 0 -36 -3q-40 -8 -71 -32t-40 -56q-3 -12 -3 -25q0 -53 61 -112l254 -244q48 -48 114 -110q99 -88 134 -199q19 -56 19 -113q0 -50 -15 -100q-32 -111 -125 -191.5t-217 -105.5q-41 -8 -93 -8q-98 0 -180 33q-147 60 -252 194z" />
<glyph unicode="t" horiz-adv-x="1196" d="M61 1307v213h1076v-213h-418v-1307h-240v1307h-418z" />
<glyph unicode="u" horiz-adv-x="1415" d="M145 516v1004h238v-1004q0 -135 94 -207q90 -71 232 -71q138 0 231 71q92 71 92 207v1004h240v-1004q0 -123 -51 -231q-51 -97 -136 -164q-155 -121 -376 -121q-222 0 -377 121q-87 66 -135 164q-52 104 -52 231z" />
<glyph unicode="v" horiz-adv-x="1449" d="M51 1520h262l428 -1002l400 1002h258l-651 -1588z" />
<glyph unicode="w" horiz-adv-x="2295" d="M84 1520h262l428 -1002l252 631l123 313l133 -309l270 -635l400 1002h260l-653 -1588l-402 916l-377 -916z" />
<glyph unicode="x" horiz-adv-x="1640" d="M117 0l553 813l-482 707h299l332 -488l334 488h299l-483 -707l555 -813h-299l-406 594l-403 -594h-299z" />
<glyph unicode="y" horiz-adv-x="1409" d="M53 1520h256l398 -541l397 541h254l-533 -725v-795h-237v795z" />
<glyph unicode="z" horiz-adv-x="1443" d="M104 0l781 1282h-611v238h1035l-781 -1282h760v-238h-1184z" />
<glyph unicode="{" horiz-adv-x="737" d="M49 643v227q71 0 115 15q22 9 29 16q4 4 4 17v518q0 107 41 184q40 76 120 117q38 19 89 28.5t84 11t90 1.5v-230q-127 0 -162 -16q-33 -13 -33 -96v-518q0 -96 -61 -166q61 -67 61 -162v-510q0 -78 37 -96q39 -19 158 -19v-227q-54 0 -85.5 1.5t-82 11t-88.5 28.5 q-83 39 -123 112q-45 79 -45 189v510q0 10 -4 14q-15 15 -43 23q-21 7 -46 11t-40 4z" />
<glyph unicode="|" horiz-adv-x="509" d="M160 -344v1978h196v-1978h-196z" />
<glyph unicode="}" horiz-adv-x="737" d="M119 -35q120 0 157 19q39 20 39 96v510q0 96 60 162q-60 69 -60 166v518q0 82 -34 96q-33 16 -162 16v230q57 0 90 -1.5t83.5 -11t88.5 -28.5q81 -41 121 -117q41 -77 41 -184v-518q0 -13 4 -17q6 -6 28 -16q44 -15 115 -15v-227q-51 0 -100 -16q-9 -3 -17 -6.5t-12 -6 t-8.5 -6t-5.5 -4.5q-4 -4 -4 -14v-510q0 -113 -43 -189q-44 -74 -125 -112q-38 -19 -88.5 -28.5t-82 -11t-85.5 -1.5v227z" />
<glyph unicode="~" horiz-adv-x="1435" d="M102 578v47q0 86 43 159q35 60 109 111q111 66 256 63q139 0 272 -65q81 -40 158.5 -43t112.5 24q43 27 43 89v47h233v-47q0 -95 -43 -168q-42 -72 -112 -117q-98 -62 -231 -60t-263 66q-57 28 -117 37.5t-107.5 2t-78.5 -27.5q-43 -25 -43 -71v-47h-232z" />
<glyph unicode="&#xa1;" horiz-adv-x="567" d="M123 -446l49 1228q46 -24 113 -24q60 0 110 26l49 -1230h-321zM147 1018q0 57 40.5 97t97.5 40q56 0 95.5 -40t39.5 -97q0 -56 -40 -95.5t-95 -39.5q-57 0 -97.5 39.5t-40.5 95.5z" />
<glyph unicode="&#xa2;" horiz-adv-x="956" d="M63 760q0 111 43 209q41 96 115 170q72 72 170 114q46 18 76 25v160h143v-144q113 0 221 -51l-73 -151q-64 33 -148 36v-735q83 3 152 37q31 18 39 23l94 -140q-3 -2 -57 -32q-109 -53 -228 -56v-143h-143v160q-36 8 -76 24q-102 47 -170 115q-74 74 -115 170 q-43 101 -43 209zM231 760q0 -151 109 -260q54 -54 127 -82v686q-70 -27 -127 -84q-109 -109 -109 -260z" />
<glyph unicode="&#xa3;" horiz-adv-x="1198" d="M98 565v215h135q-2 8 -5 27t-5 27q-26 143 -26 217q0 130 59 236t166 169q109 63 236 64.5t231 -58.5q88 -51 139 -139q51 -86 51 -209h-237q0 100 -74 141q-48 27 -110 25.5t-115 -31.5q-107 -63 -107 -198q0 -46 21 -170q16 -83 18 -101h287v-215h-275 q-6 -142 -49 -325h645v-240h-956l43 152q68 245 78 413h-150z" />
<glyph unicode="&#xa4;" horiz-adv-x="1259" d="M135 379l131 131q-27 43 -43 78q-35 84 -35 172q0 91 35 172q16 35 43 78l-131 131l115 114l131 -131q47 30 78 43q81 35 172 35q89 0 170 -35q36 -15 80 -43l129 131l114 -114l-131 -131q29 -40 43 -78q35 -81 35 -172q0 -88 -35 -172q-16 -35 -43 -78l131 -131 l-114 -113l-129 129q-45 -29 -78 -41q-77 -35 -172 -35q-98 0 -172 35q-30 10 -78 41l-131 -129zM344 760q0 -80 41 -148q19 -32 43 -53l2 -2q28 -29 51 -41q68 -41 150 -41q79 0 147 41q30 20 53 43q28 28 43 53q41 68 41 148q0 81 -41 149q-24 36 -40 52l-3 2 q-23 23 -53 43q-68 41 -147 41q-82 0 -150 -41q-30 -20 -53 -43q-21 -21 -43 -54q-41 -68 -41 -149z" />
<glyph unicode="&#xa5;" horiz-adv-x="1531" d="M66 1520h278l422 -586l422 586h278l-487 -678h299v-205h-393v-117h393v-205h-393v-315h-238v315h-393v205h393v117h-393v205h299z" />
<glyph unicode="&#xa6;" horiz-adv-x="509" d="M160 -344v743h196v-743h-196zM160 889v745h196v-745h-196z" />
<glyph unicode="&#xa7;" horiz-adv-x="1187" d="M106 -147l142 192q159 -117 309 -129q114 -12 199 45q54 35 79 87t13 102q-12 57 -77 95t-169 50q-160 22 -262 98q-104 75 -135 195q-28 114 14 219q24 69 80 129q-105 78 -135 197q-29 113 8 213q38 106 127 174q108 82 250 82h2q144 0 309 -95l-121 -207 q-103 62 -188 62h-2q-60 0 -105 -33q-32 -24 -45 -60.5t-4 -72.5q13 -51 68 -83.5t143 -43.5q182 -21 301 -111q119 -87 150 -219q27 -128 -29 -250q-24 -53 -59 -96q88 -78 112 -188q30 -125 -26 -250q-53 -118 -166 -193q-136 -88 -299 -88q-35 0 -53 2q-212 18 -431 177z M436 649q12 -46 63.5 -76t133.5 -41q56 -5 117 -22q40 34 61 78q21 50 12 96q-12 50 -61 84q-77 47 -147 52.5t-121 -32.5q-34 -25 -50.5 -64.5t-7.5 -74.5z" />
<glyph unicode="&#xa8;" horiz-adv-x="966" d="M139 1235q0 59 42 101t102 42q59 0 101 -42t42 -101q0 -60 -42 -101.5t-101 -41.5q-60 0 -102 41.5t-42 101.5zM545 1235q0 59 41.5 101t99.5 42q60 0 101.5 -42t41.5 -101q0 -60 -41.5 -101.5t-101.5 -41.5q-59 0 -100 41.5t-41 101.5z" />
<glyph unicode="&#xa9;" horiz-adv-x="1755" d="M111 760q0 157 59 299q60 141 166 244q102 105 244 165q145 60 299 60t299 -60q140 -60 243 -165q108 -105 164 -244q62 -142 62 -299q0 -154 -62 -299q-56 -136 -164 -244q-106 -106 -243 -164q-140 -61 -299 -61t-299 61q-139 59 -244 164q-106 106 -166 244 q-59 145 -59 299zM274 760q0 -121 46 -231t131 -195q86 -86 196.5 -132t231.5 -46t231.5 46t196.5 132q85 85 130.5 195t45.5 231t-45.5 231t-130.5 197q-176 176 -428 176t-428 -176q-85 -87 -131 -197t-46 -231zM457 760q0 96 35 170q26 70 92 139q57 57 139 94 q76 33 170 33t170 -33q3 -2 9 -5t9 -5v-160q-84 68 -188 68q-122 0 -213 -88q-86 -89 -86 -213q0 -125 86 -211q88 -88 213 -88q126 0 211 88q16 13 29 33v-187q-30 -21 -70 -37q-78 -34 -170 -34t-170 34q-80 36 -139 95q-63 63 -92 137q-35 77 -35 170z" />
<glyph unicode="&#xaa;" horiz-adv-x="661" d="M109 1122q0 74 43 123q53 53 133 53h125v35q0 46 -35 66q-26 15 -62.5 14t-64.5 -18q-17 -9 -27 -25l-90 60q22 35 62 57q54 33 116 33q61 3 119 -27q44 -26 66 -63q24 -40 24 -97v-387h-100h-133q-84 0 -133 53q-43 46 -43 123zM205 1122q0 -36 18 -57q20 -23 62 -23 h125v158h-125q-45 0 -62 -20q-18 -21 -18 -58z" />
<glyph unicode="&#xab;" horiz-adv-x="1232" d="M76 549l358 477h236l-359 -477l361 -483h-236zM506 549l358 477h236l-359 -477l361 -483h-236z" />
<glyph unicode="&#xac;" horiz-adv-x="1185" d="M20 834v204h1008v-557h-205v353h-803z" />
<glyph unicode="&#xad;" horiz-adv-x="956" d="M160 657v205h639v-205h-639z" />
<glyph unicode="&#xae;" horiz-adv-x="1755" d="M111 760q0 157 59 299q60 141 166 244q102 105 244 165q145 60 299 60t299 -60q140 -60 243 -165q108 -105 164 -244q62 -142 62 -299q0 -154 -62 -299q-56 -136 -164 -244q-106 -106 -243 -164q-140 -61 -299 -61t-299 61q-139 59 -244 164q-106 106 -166 244 q-59 145 -59 299zM274 760q0 -121 46 -231t131 -195q86 -86 196.5 -132t231.5 -46t231.5 46t196.5 132q85 85 130.5 195t45.5 231t-45.5 231t-130.5 197q-176 176 -428 176t-428 -176q-85 -87 -131 -197t-46 -231zM594 324v872h117h141q142 0 219 -86q72 -78 72 -203 q0 -124 -72 -202q-39 -45 -100 -66l233 -315h-153l-220 294h-100v-294h-137zM731 741h121q86 0 127 47q39 41 39 119t-39 119q-41 47 -127 47h-121v-332z" />
<glyph unicode="&#xb0;" horiz-adv-x="731" d="M111 1378q0 108 73 181q75 75 181 75q108 0 180 -75q76 -73 76 -181q0 -104 -76 -180q-74 -74 -180 -74q-104 0 -181 74q-73 76 -73 180zM236 1378q0 -54 38 -91.5t91 -37.5q54 0 91.5 37.5t37.5 91.5t-37.5 91.5t-91.5 37.5q-53 0 -91 -37.5t-38 -91.5z" />
<glyph unicode="&#xb1;" horiz-adv-x="1112" d="M84 0v205h946v-205h-946zM84 709v204h371v371h204v-371h371v-204h-371v-371h-204v371h-371z" />
<glyph unicode="&#xb2;" horiz-adv-x="720" d="M92 1010l70 90q124 167 264 352q36 49 39 82q6 23 -6 43t-37 30t-53 5q-35 -6 -56 -27q-27 -24 -39 -67l-100 59q20 53 62 92q49 43 114 55q63 9 119.5 -15t85.5 -73q32 -56 23 -118q-9 -64 -60 -134q-4 -5 -196 -262h272v-112h-502z" />
<glyph unicode="&#xb3;" horiz-adv-x="718" d="M106 1098l64 90q79 -55 151 -64.5t123 27.5q37 28 52.5 72t1.5 82q-11 35 -47 57q-46 27 -121 27h-97l125 225h-206v112h395l-129 -233q40 -9 90 -35q72 -44 96 -119q24 -69 -2 -151q-25 -76 -90 -125q-71 -53 -164 -53h-16q-113 6 -226 88z" />
<glyph unicode="&#xb4;" horiz-adv-x="460" d="M90 1268l100 252h226l-176 -252h-150z" />
<glyph unicode="&#xb5;" horiz-adv-x="1048" d="M160 -311v1403h170v-721q0 -95 67 -150q66 -51 166 -51q103 0 166 51q68 53 68 150v721h172v-1092h-172v61q-98 -61 -234 -61q-132 0 -233 61v-372h-170z" />
<glyph unicode="&#xb6;" horiz-adv-x="1222" d="M74 1186q0 142 82 233q92 101 252 101h61h651l-143 -205v-1520h-205v1520h-139v-1520h-205v1057h-20q-161 0 -252 100q-82 91 -82 234z" />
<glyph unicode="&#xb7;" horiz-adv-x="509" d="M113 760q0 60 41.5 101.5t101.5 41.5q59 0 101 -41.5t42 -101.5q0 -59 -42.5 -101.5t-100.5 -42.5q-60 0 -101.5 42.5t-41.5 101.5z" />
<glyph unicode="&#xb8;" horiz-adv-x="643" d="M49 -330l82 107l14 -13q87 -61 152 -73q10 -2 29 -2q25 0 45 10q26 20 20 51q-3 21 -24 39q-33 26 -84 35l-107 18l113 158h168l-54 -74q33 -18 52 -35q57 -48 69 -116q10 -55 -12.5 -107.5t-69.5 -83.5q-53 -30 -116 -30h-2q-16 0 -52 4q-99 18 -206 100z" />
<glyph unicode="&#xb9;" horiz-adv-x="425" d="M2 1526l268 200v-716h-112v493l-88 -67z" />
<glyph unicode="&#xba;" horiz-adv-x="786" d="M111 1223q0 116 82 198q81 84 200 84q118 0 199 -84q84 -81 84 -198q0 -120 -84 -201q-82 -82 -199 -82q-118 0 -200 82t-82 201zM227 1223q0 -69 48.5 -117.5t117.5 -48.5t117.5 48.5t48.5 117.5t-48.5 117.5t-117.5 48.5t-117.5 -48.5t-48.5 -117.5z" />
<glyph unicode="&#xbb;" horiz-adv-x="1232" d="M131 66l361 483l-361 477h236l360 -477l-360 -483h-236zM561 66l361 483l-361 477h236l360 -477l-360 -483h-236z" />
<glyph unicode="&#xbc;" horiz-adv-x="1404" d="M123 1323l268 199v-717h-112v493l-89 -65zM164 0l829 1520h197l-830 -1520h-196zM737 125l469 625v-514h66v-111h-66v-125h-112v125h-357zM961 236h133v178z" />
<glyph unicode="&#xbd;" horiz-adv-x="1437" d="M121 1323l268 199v-717h-113v493l-88 -65zM162 0l829 1520h197l-830 -1520h-196zM819 0l70 90q124 167 264 352q36 49 39 82q3 25 -6 43q-12 20 -37 30t-53 5q-34 -6 -58 -27q-29 -29 -37 -67l-100 59q20 53 62 92q50 44 114 56q63 9 119.5 -15t85.5 -73q32 -56 23 -119 t-60 -133q-4 -5 -196 -262h272v-113h-502z" />
<glyph unicode="&#xbe;" horiz-adv-x="1429" d="M104 891l66 92q78 -57 149.5 -66.5t122.5 29.5q37 28 52.5 71t3.5 81q-12 36 -49 57q-48 30 -121 27h-95l123 227h-206v111h395l-127 -234q52 -13 90 -35q70 -45 94 -116q25 -76 0 -152q-29 -81 -92 -127q-71 -53 -162 -53h-18q-105 6 -226 88zM266 0l830 1520h196 l-829 -1520h-197zM758 125l467 625v-514h67v-111h-67v-125h-113v125h-354zM981 236h131v178z" />
<glyph unicode="&#xbf;" horiz-adv-x="1204" d="M111 23q29 159 192 339q10 12 35 37q75 75 123 160q59 109 65 225q50 -28 131 -28q71 0 121 28q-6 -169 -94 -327q-58 -105 -158 -205q-7 -6 -17 -17t-11 -12q-93 -101 -131 -203q-32 -100 14 -161q41 -54 121 -72q36 -10 84 -10q42 0 90 10q74 21 117 70q54 57 57 151 h252q-3 -157 -103 -278q-93 -113 -249 -154q-73 -22 -164 -22q-128 0 -239.5 49t-174.5 133q-92 123 -61 287zM520 1018q0 57 40 97t97 40t97.5 -40t40.5 -97t-40.5 -97t-97.5 -40t-97 40t-40 97z" />
<glyph unicode="&#xc0;" d="M51 0l662 1589l659 -1589h-260l-129 326h-541l-129 -326h-262zM528 539h369l-184 462zM535 1944h213l143 -240h-143z" />
<glyph unicode="&#xc1;" d="M51 0l662 1589l659 -1589h-260l-129 326h-541l-129 -326h-262zM528 539h369l-184 462zM600 1704l143 240h213l-213 -240h-143z" />
<glyph unicode="&#xc2;" d="M51 0l662 1589l659 -1589h-260l-129 326h-541l-129 -326h-262zM504 1706l215 238l199 -240l-82 -70l-121 146l-131 -146zM528 539h369l-184 462z" />
<glyph unicode="&#xc3;" d="M51 0l662 1589l659 -1589h-260l-129 326h-541l-129 -326h-262zM436 1692v24q0 34 21 74q18 31 49 49q48 31 112 31h3q61 -3 122 -31q37 -18 70 -18q26 0 43 10q18 12 18 35v26h111v-26q0 -42 -18 -76q-16 -31 -52 -53q-43 -27 -100 -27q-58 0 -121 29q-35 18 -76 18 q-35 0 -53 -12q-16 -9 -16 -29v-24h-113zM528 539h369l-184 462z" />
<glyph unicode="&#xc4;" d="M51 0l662 1589l659 -1589h-260l-129 326h-541l-129 -326h-262zM457 1839q0 43 30.5 74t73.5 31t74 -31t31 -74t-31 -73.5t-74 -30.5t-73.5 30.5t-30.5 73.5zM528 539h369l-184 462zM758 1839q0 43 30.5 74t73.5 31t74 -31t31 -74t-31 -73.5t-74 -30.5t-73.5 30.5 t-30.5 73.5z" />
<glyph unicode="&#xc5;" d="M51 0l662 1589l659 -1589h-260l-129 326h-541l-129 -326h-262zM528 539h369l-184 462zM555 1841q0 65 45.5 110.5t110.5 45.5q66 0 111.5 -45.5t45.5 -110.5q0 -66 -45.5 -112t-111.5 -46q-65 0 -110.5 46t-45.5 112zM649 1841q0 -26 18.5 -44.5t43.5 -18.5 q26 0 44.5 18.5t18.5 44.5q0 25 -18.5 43.5t-44.5 18.5q-25 0 -43.5 -18.5t-18.5 -43.5z" />
<glyph unicode="&#xc6;" horiz-adv-x="1943" d="M51 0l662 1589l28 -69h613v-213h-525l168 -406h502v-215h-414l197 -471h610v-215h-782h2l-129 326h-541l-129 -326h-262zM528 539h369l-184 462z" />
<glyph unicode="&#xc7;" horiz-adv-x="1386" d="M96 760q0 152 60 297q60 138 163 241q108 108 242 162q135 60 295 60q159 0 297 -60q5 -2 16.5 -7t16.5 -7v-281q-142 117 -330 117q-105 0 -200.5 -39.5t-168.5 -114.5q-74 -74 -113.5 -169t-39.5 -199t39.5 -199.5t113.5 -169.5t169.5 -113.5t199.5 -39.5t199.5 39.5 t169.5 113.5q23 23 51 58v-324q-65 -42 -123 -66q-127 -53 -264 -59l-53 -74q36 -20 51 -35q55 -44 71 -116q11 -56 -12 -108t-72 -83q-50 -30 -116 -30q-19 0 -51 4q-102 19 -209 100l-17 12l82 107l17 -13q82 -61 149 -73q10 -2 29 -2q28 0 45 10q28 19 22 51 q-3 19 -26 39q-29 26 -82 35l-107 18l121 168q-94 16 -170 49q-135 57 -242 164q-105 105 -163 242q-60 142 -60 295z" />
<glyph unicode="&#xc8;" horiz-adv-x="1191" d="M160 0h235h676v215h-674v471h555v215h-555v406h674v213h-676h-235v-1520zM459 1923h215l143 -240h-143z" />
<glyph unicode="&#xc9;" horiz-adv-x="1191" d="M160 0v1520h235h676v-213h-674v-406h555v-215h-555v-471h674v-215h-676h-235zM459 1683l143 240h215l-215 -240h-143z" />
<glyph unicode="&#xca;" horiz-adv-x="1191" d="M160 0v1520h235h676v-213h-674v-406h555v-215h-555v-471h674v-215h-676h-235zM410 1747l213 238l200 -240l-82 -70l-123 146l-129 -146z" />
<glyph unicode="&#xcb;" horiz-adv-x="1191" d="M160 0v1520h235h676v-213h-674v-406h555v-215h-555v-471h674v-215h-676h-235zM360 1819q0 43 31 73.5t74 30.5t73.5 -30.5t30.5 -73.5t-30.5 -74t-73.5 -31t-74 31t-31 74zM662 1819q0 43 30.5 73.5t73.5 30.5t73.5 -30.5t30.5 -73.5t-30.5 -74t-73.5 -31t-73.5 31 t-30.5 74z" />
<glyph unicode="&#xcc;" horiz-adv-x="583" d="M33 1923h215l141 -240h-141zM174 0h238v1520h-238v-1520z" />
<glyph unicode="&#xcd;" horiz-adv-x="583" d="M172 0v1520h238v-1520h-238zM195 1683l143 240h213l-213 -240h-143z" />
<glyph unicode="&#xce;" horiz-adv-x="557" d="M74 1747l213 238l200 -240l-81 -70l-121 146l-131 -146zM162 0v1520h237v-1520h-237z" />
<glyph unicode="&#xcf;" horiz-adv-x="557" d="M25 1819q0 43 31 73.5t75 30.5q43 0 74 -30.5t31 -73.5t-31 -74t-74 -31q-44 0 -75 31t-31 74zM162 0v1520h237v-1520h-237zM326 1819q0 43 31 73.5t75 30.5q43 0 74 -30.5t31 -73.5t-31 -74t-74 -31q-44 0 -75 31t-31 74z" />
<glyph unicode="&#xd0;" horiz-adv-x="1519" d="M160 657v205h137v658h238h122q189 0 332 -60q143 -55 244 -168q184 -202 184 -532q0 -331 -184 -533q-101 -113 -244 -168q-148 -59 -332 -59h-280h-80v657h-137zM535 238h122q263 0 400 149q123 135 123 373t-123 373q-134 149 -400 149h-122v-420h253v-205h-253v-419z " />
<glyph unicode="&#xd1;" horiz-adv-x="1511" d="M160 0v1591l954 -1046v975h240v-1590l-957 1047v-977h-237zM481 1671v25q0 33 21 73q19 32 49 50q47 30 113 30h2q64 -3 122 -30q36 -19 70 -19q26 0 43 10q19 13 19 35v27h110v-27q0 -41 -18 -76q-17 -32 -51 -53q-42 -26 -101 -26q-60 0 -121 28q-37 19 -75 19 q-34 0 -54 -13q-16 -9 -16 -28v-25h-113z" />
<glyph unicode="&#xd2;" horiz-adv-x="1738" d="M111 760q0 -156 59 -295q57 -135 164 -242t241 -164q139 -59 295 -59q155 0 297 59q132 57 242 164q103 103 162 242t59 295q0 155 -59 297q-58 134 -162 241q-106 103 -242 162q-145 60 -297 60q-153 0 -295 -60q-137 -58 -241 -162q-107 -111 -164 -241 q-59 -142 -59 -297zM348 760q0 104 40 199t114 169t169 114t199 40t199.5 -40t169.5 -114t114 -169t40 -199t-40 -199.5t-114 -169.5t-169.5 -113.5t-199.5 -39.5t-199 39.5t-169 113.5t-114 169.5t-40 199.5zM590 1923h215l141 -240h-141z" />
<glyph unicode="&#xd3;" horiz-adv-x="1738" d="M111 760q0 155 59 297q57 130 164 241q104 104 241 162q142 60 295 60q152 0 297 -60q136 -59 242 -162q104 -107 162 -241q59 -142 59 -297q0 -156 -59 -295t-162 -242q-110 -107 -242 -164q-142 -59 -297 -59q-156 0 -295 59q-134 57 -241 164t-164 242 q-59 139 -59 295zM348 760q0 -104 40 -199.5t114 -169.5t169 -113.5t199 -39.5t199.5 39.5t169.5 113.5t114 169.5t40 199.5t-40 199t-114 169t-169.5 114t-199.5 40t-199 -40t-169 -114t-114 -169t-40 -199zM805 1683l143 240h213l-213 -240h-143z" />
<glyph unicode="&#xd4;" horiz-adv-x="1738" d="M111 760q0 155 59 297q57 130 164 241q104 104 241 162q142 60 295 60q152 0 297 -60q136 -59 242 -162q104 -107 162 -241q59 -142 59 -297q0 -156 -59 -295t-162 -242q-110 -107 -242 -164q-142 -59 -297 -59q-156 0 -295 59q-134 57 -241 164t-164 242 q-59 139 -59 295zM348 760q0 -104 40 -199.5t114 -169.5t169 -113.5t199 -39.5t199.5 39.5t169.5 113.5t114 169.5t40 199.5t-40 199t-114 169t-169.5 114t-199.5 40t-199 -40t-169 -114t-114 -169t-40 -199zM664 1747l213 238l200 -240l-82 -70l-121 146l-131 -146z" />
<glyph unicode="&#xd5;" horiz-adv-x="1738" d="M111 760q0 155 59 297q57 130 164 241q104 104 241 162q142 60 295 60q152 0 297 -60q136 -59 242 -162q104 -107 162 -241q59 -142 59 -297q0 -156 -59 -295t-162 -242q-110 -107 -242 -164q-142 -59 -297 -59q-156 0 -295 59q-134 57 -241 164t-164 242 q-59 139 -59 295zM348 760q0 -104 40 -199.5t114 -169.5t169 -113.5t199 -39.5t199.5 39.5t169.5 113.5t114 169.5t40 199.5t-40 199t-114 169t-169.5 114t-199.5 40t-199 -40t-169 -114t-114 -169t-40 -199zM596 1671v25q0 40 20 73q14 29 50 50q46 30 112 30h2 q65 -3 123 -30q36 -19 70 -19q26 0 43 10q18 12 18 35v27h111v-27q0 -40 -19 -76q-14 -27 -51 -53q-42 -26 -102 -26q-58 0 -119 28q-37 19 -76 19q-34 0 -53 -13q-16 -9 -16 -28v-25h-113z" />
<glyph unicode="&#xd6;" horiz-adv-x="1738" d="M111 760q0 155 59 297q57 130 164 241q104 104 241 162q142 60 295 60q152 0 297 -60q136 -59 242 -162q104 -107 162 -241q59 -142 59 -297q0 -156 -59 -295t-162 -242q-110 -107 -242 -164q-142 -59 -297 -59q-156 0 -295 59q-134 57 -241 164t-164 242 q-59 139 -59 295zM348 760q0 -104 40 -199.5t114 -169.5t169 -113.5t199 -39.5t199.5 39.5t169.5 113.5t114 169.5t40 199.5t-40 199t-114 169t-169.5 114t-199.5 40t-199 -40t-169 -114t-114 -169t-40 -199zM614 1819q0 43 31.5 73.5t75.5 30.5q43 0 73.5 -30.5t30.5 -73.5 t-30.5 -74t-73.5 -31q-44 0 -75.5 31t-31.5 74zM915 1819q0 43 31.5 73.5t75.5 30.5q43 0 73.5 -30.5t30.5 -73.5t-30.5 -74t-73.5 -31q-44 0 -75.5 31t-31.5 74z" />
<glyph unicode="&#xd7;" horiz-adv-x="1116" d="M123 465l295 295l-295 297l139 139l297 -297l295 297l70 -70l69 -69l-295 -297l295 -295l-69 -70l-70 -71l-295 297l-297 -297l-69 71z" />
<glyph unicode="&#xd8;" horiz-adv-x="1734" d="M109 760q0 155 59 297q57 130 164 241q104 104 241 162q142 60 295 60q140 0 262 -45q6 -2 17.5 -7.5t17.5 -7.5q35 -14 76 -37l135 185h238l-219 -299q10 -10 12 -11q104 -107 162 -241q59 -142 59 -297q0 -156 -59 -295t-162 -242q-110 -107 -242 -164 q-142 -59 -297 -59q-135 0 -262 47q-5 2 -16.5 6t-16.5 6q-28 12 -75 37l-138 -184h-237l221 299l-12 12q-107 107 -164 242q-59 139 -59 295zM346 760q0 -207 141 -357l611 826q-62 27 -82 33q-78 20 -148 20q-104 0 -199 -40t-169 -114t-114 -169t-40 -199zM639 291 q50 -22 82 -31q74 -22 147 -22q104 0 199.5 39.5t169.5 113.5t114 169.5t40 199.5q0 204 -140 356z" />
<glyph unicode="&#xd9;" horiz-adv-x="1415" d="M145 516q0 -127 52 -231q48 -98 135 -164q155 -121 377 -121q221 0 376 121q85 67 136 164q51 108 51 231v1004h-240v-1004q0 -136 -92 -207q-93 -71 -231 -71q-142 0 -232 71q-94 72 -94 207v1004h-238v-1004zM530 1923h213l144 -240h-144z" />
<glyph unicode="&#xda;" horiz-adv-x="1415" d="M145 516v1004h238v-1004q0 -135 94 -207q90 -71 232 -71q138 0 231 71q92 71 92 207v1004h240v-1004q0 -123 -51 -231q-51 -97 -136 -164q-155 -121 -376 -121q-222 0 -377 121q-87 66 -135 164q-52 104 -52 231zM530 1683l142 240h215l-215 -240h-142z" />
<glyph unicode="&#xdb;" horiz-adv-x="1415" d="M145 516v1004h238v-1004q0 -135 94 -207q90 -71 232 -71q138 0 231 71q92 71 92 207v1004h240v-1004q0 -123 -51 -231q-51 -97 -136 -164q-155 -121 -376 -121q-222 0 -377 121q-87 66 -135 164q-52 104 -52 231zM502 1747l213 238l200 -240l-81 -70l-121 146l-131 -146z " />
<glyph unicode="&#xdc;" horiz-adv-x="1415" d="M145 516v1004h238v-1004q0 -135 94 -207q90 -71 232 -71q138 0 231 71q92 71 92 207v1004h240v-1004q0 -123 -51 -231q-51 -97 -136 -164q-155 -121 -376 -121q-222 0 -377 121q-87 66 -135 164q-52 104 -52 231zM453 1819q0 43 30.5 73.5t73.5 30.5t74 -30.5t31 -73.5 t-31 -74t-74 -31t-73.5 31t-30.5 74zM754 1819q0 43 30.5 73.5t73.5 30.5t74 -30.5t31 -73.5t-31 -74t-74 -31t-73.5 31t-30.5 74z" />
<glyph unicode="&#xdd;" horiz-adv-x="1409" d="M53 1520h256l398 -541l397 541h254l-533 -725v-795h-237v795zM571 1683l144 240h213l-213 -240h-144z" />
<glyph unicode="&#xde;" horiz-adv-x="1163" d="M160 0v1520h237v-189h224q243 0 378 -151q123 -138 123 -353q0 -217 -123 -352q-132 -151 -378 -151h-224v-324h-237zM397 539h224q148 0 221 79q67 74 67 209q0 133 -67 207q-73 82 -221 82h-224v-577z" />
<glyph unicode="&#xdf;" horiz-adv-x="1251" d="M160 0v1196q0 89 46.5 161.5t131.5 115.5q113 56 256 47q139 -12 254 -93q107 -78 151 -204q43 -127 2 -248q-24 -77 -81 -137q111 -66 170 -167t59 -212q0 -97 -41 -178q-40 -84 -121 -150q-161 -131 -432 -131h-51v238h51q187 0 283 79q73 61 73 142q0 87 -77 149 q-100 82 -285 82h-45v240h22q100 0 165 31.5t85 89.5q15 47 -4 98.5t-65 85.5q-56 41 -136 46.5t-127 -21.5q-47 -25 -47 -64v-1196h-237z" />
<glyph unicode="&#xe0;" d="M51 0l662 1589l659 -1589h-260l-129 326h-541l-129 -326h-262zM528 539h369l-184 462zM535 1944h213l143 -240h-143z" />
<glyph unicode="&#xe1;" d="M51 0l662 1589l659 -1589h-260l-129 326h-541l-129 -326h-262zM528 539h369l-184 462zM600 1704l143 240h213l-213 -240h-143z" />
<glyph unicode="&#xe2;" d="M51 0l662 1589l659 -1589h-260l-129 326h-541l-129 -326h-262zM504 1706l215 238l199 -240l-82 -70l-121 146l-131 -146zM528 539h369l-184 462z" />
<glyph unicode="&#xe3;" d="M51 0l662 1589l659 -1589h-260l-129 326h-541l-129 -326h-262zM436 1692v24q0 34 21 74q18 31 49 49q48 31 112 31h3q61 -3 122 -31q37 -18 70 -18q26 0 43 10q18 12 18 35v26h111v-26q0 -42 -18 -76q-16 -31 -52 -53q-43 -27 -100 -27q-58 0 -121 29q-35 18 -76 18 q-35 0 -53 -12q-16 -9 -16 -29v-24h-113zM528 539h369l-184 462z" />
<glyph unicode="&#xe4;" d="M51 0l662 1589l659 -1589h-260l-129 326h-541l-129 -326h-262zM457 1839q0 43 30.5 74t73.5 31t74 -31t31 -74t-31 -73.5t-74 -30.5t-73.5 30.5t-30.5 73.5zM528 539h369l-184 462zM758 1839q0 43 30.5 74t73.5 31t74 -31t31 -74t-31 -73.5t-74 -30.5t-73.5 30.5 t-30.5 73.5z" />
<glyph unicode="&#xe5;" d="M51 0l662 1589l659 -1589h-260l-129 326h-541l-129 -326h-262zM528 539h369l-184 462zM555 1841q0 65 45.5 110.5t110.5 45.5q66 0 111.5 -45.5t45.5 -110.5q0 -66 -45.5 -112t-111.5 -46q-65 0 -110.5 46t-45.5 112zM649 1841q0 -26 18.5 -44.5t43.5 -18.5 q26 0 44.5 18.5t18.5 44.5q0 25 -18.5 43.5t-44.5 18.5q-25 0 -43.5 -18.5t-18.5 -43.5z" />
<glyph unicode="&#xe6;" horiz-adv-x="1943" d="M51 0l662 1589l28 -69h613v-213h-525l168 -406h502v-215h-414l197 -471h610v-215h-782h2l-129 326h-541l-129 -326h-262zM528 539h369l-184 462z" />
<glyph unicode="&#xe7;" horiz-adv-x="1386" d="M96 760q0 152 60 297q60 138 163 241q108 108 242 162q135 60 295 60q159 0 297 -60q5 -2 16.5 -7t16.5 -7v-281q-142 117 -330 117q-105 0 -200.5 -39.5t-168.5 -114.5q-74 -74 -113.5 -169t-39.5 -199t39.5 -199.5t113.5 -169.5t169.5 -113.5t199.5 -39.5t199.5 39.5 t169.5 113.5q23 23 51 58v-324q-65 -42 -123 -66q-127 -53 -264 -59l-53 -74q36 -20 51 -35q55 -44 71 -116q11 -56 -12 -108t-72 -83q-50 -30 -116 -30q-19 0 -51 4q-102 19 -209 100l-17 12l82 107l17 -13q82 -61 149 -73q10 -2 29 -2q28 0 45 10q28 19 22 51 q-3 19 -26 39q-29 26 -82 35l-107 18l121 168q-94 16 -170 49q-135 57 -242 164q-105 105 -163 242q-60 142 -60 295z" />
<glyph unicode="&#xe8;" horiz-adv-x="1191" d="M160 0h235h676v215h-674v471h555v215h-555v406h674v213h-676h-235v-1520zM459 1923h215l143 -240h-143z" />
<glyph unicode="&#xe9;" horiz-adv-x="1191" d="M160 0v1520h235h676v-213h-674v-406h555v-215h-555v-471h674v-215h-676h-235zM459 1683l143 240h215l-215 -240h-143z" />
<glyph unicode="&#xea;" horiz-adv-x="1191" d="M160 0v1520h235h676v-213h-674v-406h555v-215h-555v-471h674v-215h-676h-235zM410 1747l213 238l200 -240l-82 -70l-123 146l-129 -146z" />
<glyph unicode="&#xeb;" horiz-adv-x="1191" d="M160 0v1520h235h676v-213h-674v-406h555v-215h-555v-471h674v-215h-676h-235zM360 1819q0 43 31 73.5t74 30.5t73.5 -30.5t30.5 -73.5t-30.5 -74t-73.5 -31t-74 31t-31 74zM662 1819q0 43 30.5 73.5t73.5 30.5t73.5 -30.5t30.5 -73.5t-30.5 -74t-73.5 -31t-73.5 31 t-30.5 74z" />
<glyph unicode="&#xec;" horiz-adv-x="583" d="M33 1923h215l141 -240h-141zM174 0h238v1520h-238v-1520z" />
<glyph unicode="&#xed;" horiz-adv-x="583" d="M172 0v1520h238v-1520h-238zM195 1683l143 240h213l-213 -240h-143z" />
<glyph unicode="&#xee;" horiz-adv-x="557" d="M74 1747l213 238l200 -240l-81 -70l-121 146l-131 -146zM162 0v1520h237v-1520h-237z" />
<glyph unicode="&#xef;" horiz-adv-x="557" d="M25 1819q0 43 31 73.5t75 30.5q43 0 74 -30.5t31 -73.5t-31 -74t-74 -31q-44 0 -75 31t-31 74zM162 0v1520h237v-1520h-237zM326 1819q0 43 31 73.5t75 30.5q43 0 74 -30.5t31 -73.5t-31 -74t-74 -31q-44 0 -75 31t-31 74z" />
<glyph unicode="&#xf0;" horiz-adv-x="1519" d="M160 657v205h137v658h238h122q189 0 332 -60q143 -55 244 -168q184 -202 184 -532q0 -331 -184 -533q-101 -113 -244 -168q-148 -59 -332 -59h-280h-80v657h-137zM535 238h122q263 0 400 149q123 135 123 373t-123 373q-134 149 -400 149h-122v-420h253v-205h-253v-419z " />
<glyph unicode="&#xf1;" horiz-adv-x="1511" d="M160 0v1591l954 -1046v975h240v-1590l-957 1047v-977h-237zM481 1671v25q0 33 21 73q19 32 49 50q47 30 113 30h2q64 -3 122 -30q36 -19 70 -19q26 0 43 10q19 13 19 35v27h110v-27q0 -41 -18 -76q-17 -32 -51 -53q-42 -26 -101 -26q-60 0 -121 28q-37 19 -75 19 q-34 0 -54 -13q-16 -9 -16 -28v-25h-113z" />
<glyph unicode="&#xf2;" horiz-adv-x="1738" d="M111 760q0 -156 59 -295q57 -135 164 -242t241 -164q139 -59 295 -59q155 0 297 59q132 57 242 164q103 103 162 242t59 295q0 155 -59 297q-58 134 -162 241q-106 103 -242 162q-145 60 -297 60q-153 0 -295 -60q-137 -58 -241 -162q-107 -111 -164 -241 q-59 -142 -59 -297zM348 760q0 104 40 199t114 169t169 114t199 40t199.5 -40t169.5 -114t114 -169t40 -199t-40 -199.5t-114 -169.5t-169.5 -113.5t-199.5 -39.5t-199 39.5t-169 113.5t-114 169.5t-40 199.5zM590 1923h215l141 -240h-141z" />
<glyph unicode="&#xf3;" horiz-adv-x="1738" d="M111 760q0 155 59 297q57 130 164 241q104 104 241 162q142 60 295 60q152 0 297 -60q136 -59 242 -162q104 -107 162 -241q59 -142 59 -297q0 -156 -59 -295t-162 -242q-110 -107 -242 -164q-142 -59 -297 -59q-156 0 -295 59q-134 57 -241 164t-164 242 q-59 139 -59 295zM348 760q0 -104 40 -199.5t114 -169.5t169 -113.5t199 -39.5t199.5 39.5t169.5 113.5t114 169.5t40 199.5t-40 199t-114 169t-169.5 114t-199.5 40t-199 -40t-169 -114t-114 -169t-40 -199zM805 1683l143 240h213l-213 -240h-143z" />
<glyph unicode="&#xf4;" horiz-adv-x="1738" d="M111 760q0 155 59 297q57 130 164 241q104 104 241 162q142 60 295 60q152 0 297 -60q136 -59 242 -162q104 -107 162 -241q59 -142 59 -297q0 -156 -59 -295t-162 -242q-110 -107 -242 -164q-142 -59 -297 -59q-156 0 -295 59q-134 57 -241 164t-164 242 q-59 139 -59 295zM348 760q0 -104 40 -199.5t114 -169.5t169 -113.5t199 -39.5t199.5 39.5t169.5 113.5t114 169.5t40 199.5t-40 199t-114 169t-169.5 114t-199.5 40t-199 -40t-169 -114t-114 -169t-40 -199zM664 1747l213 238l200 -240l-82 -70l-121 146l-131 -146z" />
<glyph unicode="&#xf5;" horiz-adv-x="1738" d="M111 760q0 155 59 297q57 130 164 241q104 104 241 162q142 60 295 60q152 0 297 -60q136 -59 242 -162q104 -107 162 -241q59 -142 59 -297q0 -156 -59 -295t-162 -242q-110 -107 -242 -164q-142 -59 -297 -59q-156 0 -295 59q-134 57 -241 164t-164 242 q-59 139 -59 295zM348 760q0 -104 40 -199.5t114 -169.5t169 -113.5t199 -39.5t199.5 39.5t169.5 113.5t114 169.5t40 199.5t-40 199t-114 169t-169.5 114t-199.5 40t-199 -40t-169 -114t-114 -169t-40 -199zM596 1671v25q0 40 20 73q14 29 50 50q46 30 112 30h2 q65 -3 123 -30q36 -19 70 -19q26 0 43 10q18 12 18 35v27h111v-27q0 -40 -19 -76q-14 -27 -51 -53q-42 -26 -102 -26q-58 0 -119 28q-37 19 -76 19q-34 0 -53 -13q-16 -9 -16 -28v-25h-113z" />
<glyph unicode="&#xf6;" horiz-adv-x="1738" d="M111 760q0 155 59 297q57 130 164 241q104 104 241 162q142 60 295 60q152 0 297 -60q136 -59 242 -162q104 -107 162 -241q59 -142 59 -297q0 -156 -59 -295t-162 -242q-110 -107 -242 -164q-142 -59 -297 -59q-156 0 -295 59q-134 57 -241 164t-164 242 q-59 139 -59 295zM348 760q0 -104 40 -199.5t114 -169.5t169 -113.5t199 -39.5t199.5 39.5t169.5 113.5t114 169.5t40 199.5t-40 199t-114 169t-169.5 114t-199.5 40t-199 -40t-169 -114t-114 -169t-40 -199zM614 1819q0 43 31.5 73.5t75.5 30.5q43 0 73.5 -30.5t30.5 -73.5 t-30.5 -74t-73.5 -31q-44 0 -75.5 31t-31.5 74zM915 1819q0 43 31.5 73.5t75.5 30.5q43 0 73.5 -30.5t30.5 -73.5t-30.5 -74t-73.5 -31q-44 0 -75.5 31t-31.5 74z" />
<glyph unicode="&#xf7;" horiz-adv-x="1290" d="M29 666v188h1235v-188h-1235zM502 391q0 60 42 102t101 42q60 0 101.5 -42t41.5 -102q0 -59 -41.5 -101t-101.5 -42q-59 0 -101 42t-42 101zM502 1128q0 60 42 102t101 42q60 0 101.5 -42t41.5 -102q0 -59 -41.5 -101t-101.5 -42q-59 0 -101 42.5t-42 100.5z" />
<glyph unicode="&#xf8;" horiz-adv-x="1734" d="M109 760q0 155 59 297q57 130 164 241q104 104 241 162q142 60 295 60q140 0 262 -45q6 -2 17.5 -7.5t17.5 -7.5q35 -14 76 -37l135 185h238l-219 -299q10 -10 12 -11q104 -107 162 -241q59 -142 59 -297q0 -156 -59 -295t-162 -242q-110 -107 -242 -164 q-142 -59 -297 -59q-135 0 -262 47q-5 2 -16.5 6t-16.5 6q-28 12 -75 37l-138 -184h-237l221 299l-12 12q-107 107 -164 242q-59 139 -59 295zM346 760q0 -207 141 -357l611 826q-62 27 -82 33q-78 20 -148 20q-104 0 -199 -40t-169 -114t-114 -169t-40 -199zM639 291 q50 -22 82 -31q74 -22 147 -22q104 0 199.5 39.5t169.5 113.5t114 169.5t40 199.5q0 204 -140 356z" />
<glyph unicode="&#xf9;" horiz-adv-x="1415" d="M145 516q0 -127 52 -231q48 -98 135 -164q155 -121 377 -121q221 0 376 121q85 67 136 164q51 108 51 231v1004h-240v-1004q0 -136 -92 -207q-93 -71 -231 -71q-142 0 -232 71q-94 72 -94 207v1004h-238v-1004zM530 1923h213l144 -240h-144z" />
<glyph unicode="&#xfa;" horiz-adv-x="1415" d="M145 516v1004h238v-1004q0 -135 94 -207q90 -71 232 -71q138 0 231 71q92 71 92 207v1004h240v-1004q0 -123 -51 -231q-51 -97 -136 -164q-155 -121 -376 -121q-222 0 -377 121q-87 66 -135 164q-52 104 -52 231zM530 1683l142 240h215l-215 -240h-142z" />
<glyph unicode="&#xfb;" horiz-adv-x="1415" d="M145 516v1004h238v-1004q0 -135 94 -207q90 -71 232 -71q138 0 231 71q92 71 92 207v1004h240v-1004q0 -123 -51 -231q-51 -97 -136 -164q-155 -121 -376 -121q-222 0 -377 121q-87 66 -135 164q-52 104 -52 231zM502 1747l213 238l200 -240l-81 -70l-121 146l-131 -146z " />
<glyph unicode="&#xfc;" horiz-adv-x="1415" d="M145 516v1004h238v-1004q0 -135 94 -207q90 -71 232 -71q138 0 231 71q92 71 92 207v1004h240v-1004q0 -123 -51 -231q-51 -97 -136 -164q-155 -121 -376 -121q-222 0 -377 121q-87 66 -135 164q-52 104 -52 231zM453 1819q0 43 30.5 73.5t73.5 30.5t74 -30.5t31 -73.5 t-31 -74t-74 -31t-73.5 31t-30.5 74zM754 1819q0 43 30.5 73.5t73.5 30.5t74 -30.5t31 -73.5t-31 -74t-74 -31t-73.5 31t-30.5 74z" />
<glyph unicode="&#xfd;" horiz-adv-x="1409" d="M53 1520h256l398 -541l397 541h254l-533 -725v-795h-237v795zM571 1683l144 240h213l-213 -240h-144z" />
<glyph unicode="&#xfe;" horiz-adv-x="1163" d="M160 0v1520h237v-189h224q243 0 378 -151q123 -138 123 -353q0 -217 -123 -352q-132 -151 -378 -151h-224v-324h-237zM397 539h224q148 0 221 79q67 74 67 209q0 133 -67 207q-73 82 -221 82h-224v-577z" />
<glyph unicode="&#xff;" horiz-adv-x="1409" d="M53 1520h256l398 -541l397 541h254l-533 -725v-795h-237v795zM451 1819q0 43 30.5 73.5t73.5 30.5t73.5 -30.5t30.5 -73.5t-30.5 -74t-73.5 -31t-73.5 31t-30.5 74zM752 1819q0 43 30.5 73.5t73.5 30.5t74 -30.5t31 -73.5t-31 -74t-74 -31t-73.5 31t-30.5 74z" />
<glyph unicode="&#x152;" horiz-adv-x="2486" d="M172 760q0 155 59 297q57 130 164 241q103 103 242 162q142 60 295 60q152 0 297 -60q120 -50 225 -147v207h236h675v-213h-673v-406h555v-215h-555v-471h673v-215h-675h-236v207q-107 -99 -225 -148q-142 -59 -297 -59q-156 0 -295 59q-135 57 -242 164t-164 242 q-59 139 -59 295zM410 760q0 -104 39.5 -199.5t113.5 -169.5t169.5 -113.5t199.5 -39.5t199 39.5t169 113.5t114 169.5t40 199.5t-40 199t-114 169t-169 114t-199 40t-199.5 -40t-169.5 -114t-113.5 -169t-39.5 -199z" />
<glyph unicode="&#x153;" horiz-adv-x="2459" d="M123 760q0 155 59 297q57 130 164 241q103 103 242 162q142 60 295 60q152 0 297 -60q120 -50 225 -147v207h235h676v-213h-674v-406h556v-215h-556v-471h674v-215h-676h-235v207q-107 -99 -225 -148q-142 -59 -297 -59q-156 0 -295 59q-135 57 -242 164t-164 242 q-59 139 -59 295zM360 760q0 -104 40 -199.5t114 -169.5t169.5 -113.5t199.5 -39.5t199 39.5t169 113.5t114 169.5t40 199.5t-40 199t-114 169t-169 114t-199 40t-199.5 -40t-169.5 -114t-114 -169t-40 -199z" />
<glyph unicode="&#x178;" horiz-adv-x="1409" d="M53 1520h256l398 -541l397 541h254l-533 -725v-795h-237v795zM451 1819q0 43 30.5 73.5t73.5 30.5t73.5 -30.5t30.5 -73.5t-30.5 -74t-73.5 -31t-73.5 31t-30.5 74zM752 1819q0 43 30.5 73.5t73.5 30.5t74 -30.5t31 -73.5t-31 -74t-74 -31t-73.5 31t-30.5 74z" />
<glyph unicode="&#x2c6;" horiz-adv-x="540" d="M61 1284l213 236l201 -238l-82 -70l-121 144l-131 -144z" />
<glyph unicode="&#x2dc;" horiz-adv-x="763" d="M106 1321v25q0 39 19 71q21 36 51 51q50 29 111 29h4q60 0 123 -29q34 -18 69 -18q26 0 43 10q17 8 17 35v25h112v-25q0 -41 -18 -76q-17 -33 -51 -53q-47 -29 -103 -29q-61 0 -121 31q-37 18 -75 18q-33 0 -54 -12q-16 -11 -16 -28v-25h-111z" />
<glyph unicode="&#x2000;" horiz-adv-x="998" />
<glyph unicode="&#x2001;" horiz-adv-x="1997" />
<glyph unicode="&#x2002;" horiz-adv-x="998" />
<glyph unicode="&#x2003;" horiz-adv-x="1997" />
<glyph unicode="&#x2004;" horiz-adv-x="665" />
<glyph unicode="&#x2005;" horiz-adv-x="499" />
<glyph unicode="&#x2006;" horiz-adv-x="332" />
<glyph unicode="&#x2007;" horiz-adv-x="332" />
<glyph unicode="&#x2008;" horiz-adv-x="249" />
<glyph unicode="&#x2009;" horiz-adv-x="399" />
<glyph unicode="&#x200a;" horiz-adv-x="110" />
<glyph unicode="&#x2010;" horiz-adv-x="956" d="M160 657v205h639v-205h-639z" />
<glyph unicode="&#x2011;" horiz-adv-x="956" d="M160 657v205h639v-205h-639z" />
<glyph unicode="&#x2012;" horiz-adv-x="956" d="M160 657v205h639v-205h-639z" />
<glyph unicode="&#x2013;" horiz-adv-x="1122" d="M160 657v205h805v-205h-805z" />
<glyph unicode="&#x2014;" horiz-adv-x="1714" d="M160 657v205h1394v-205h-1394z" />
<glyph unicode="&#x2018;" horiz-adv-x="581" d="M162 1380q0 59 41.5 101.5t101.5 42.5q59 0 101.5 -43t42.5 -101q0 -57 -40.5 -98.5t-97.5 -44.5l49 -219h-81l-107 309q-10 27 -10 53z" />
<glyph unicode="&#x2019;" horiz-adv-x="581" d="M133 1380q0 59 41.5 101.5t101.5 42.5q58 0 101 -43t43 -101q0 -26 -10 -53l-109 -309h-82l49 219q-57 3 -96 44.5t-39 98.5z" />
<glyph unicode="&#x201a;" horiz-adv-x="579" d="M131 143q0 59 41.5 100.5t101.5 41.5q59 0 101.5 -42t42.5 -100q0 -26 -10 -53l-109 -309h-82l49 219q-57 3 -96 44t-39 99z" />
<glyph unicode="&#x201c;" horiz-adv-x="899" d="M162 1380q0 59 41.5 101.5t101.5 42.5q59 0 101.5 -43t42.5 -101q0 -57 -40.5 -98.5t-97.5 -44.5l49 -219h-81l-107 309q-10 27 -10 53zM479 1380q0 59 42 101.5t102 42.5q58 0 100.5 -42.5t42.5 -101.5q0 -57 -40 -98.5t-97 -44.5l49 -219h-82l-107 309q-10 27 -10 53z " />
<glyph unicode="&#x201d;" horiz-adv-x="899" d="M133 1380q0 59 41.5 101.5t101.5 42.5q58 0 101 -43t43 -101q0 -26 -10 -53l-109 -309h-82l49 219q-57 3 -96 44.5t-39 98.5zM451 1380q0 59 41.5 101.5t101.5 42.5q58 0 100.5 -42.5t42.5 -101.5q0 -26 -10 -53l-109 -309h-81l49 219q-57 3 -96 44.5t-39 98.5z" />
<glyph unicode="&#x201e;" horiz-adv-x="897" d="M131 143q0 59 41.5 100.5t101.5 41.5q59 0 101.5 -42t42.5 -100q0 -26 -10 -53l-109 -309h-82l49 219q-57 3 -96 44t-39 99zM449 143q0 59 41.5 100.5t101.5 41.5q59 0 101 -42t42 -100q0 -26 -10 -53l-109 -309h-81l49 219q-57 3 -96 44t-39 99z" />
<glyph unicode="&#x2022;" horiz-adv-x="628" d="M111 760q0 85 59.5 145t144.5 60t145 -60t60 -145t-60 -145t-145 -60t-144.5 60t-59.5 145z" />
<glyph unicode="&#x2026;" horiz-adv-x="1554" d="M147 143q0 59 42 101.5t102 42.5q58 0 100.5 -42.5t42.5 -101.5q0 -60 -42 -101.5t-101 -41.5q-60 0 -102 41.5t-42 101.5zM635 143q0 59 41.5 101.5t99.5 42.5q60 0 102 -42.5t42 -101.5q0 -60 -42 -101.5t-102 -41.5q-59 0 -100 41.5t-41 101.5zM1120 143 q0 59 42 101.5t102 42.5q58 0 100.5 -42.5t42.5 -101.5q0 -60 -42 -101.5t-101 -41.5q-60 0 -102 41.5t-42 101.5z" />
<glyph unicode="&#x202f;" horiz-adv-x="399" />
<glyph unicode="&#x2039;" horiz-adv-x="743" d="M35 549l358 477h236l-359 -477l361 -483h-236z" />
<glyph unicode="&#x203a;" horiz-adv-x="743" d="M113 66l360 483l-360 477h235l361 -477l-361 -483h-235z" />
<glyph unicode="&#x205f;" horiz-adv-x="499" />
<glyph unicode="&#x20ac;" horiz-adv-x="1353" d="M68 522v191h118q-2 16 -2 47q0 33 2 47h-118v190h151q55 174 172 297q101 107 227 164q133 62 281 62q167 0 313 -76l-108 -211q-98 49 -205 49q-136 0 -249.5 -78t-174.5 -207h561v-190h-612q0 -7 -1 -23t-1 -24t1 -23.5t1 -23.5h612v-191h-561q61 -128 174.5 -206 t249.5 -78q109 0 209 53l113 -211q-151 -80 -322 -80q-150 0 -281 61q-126 57 -227 164q-119 127 -172 297h-151z" />
<glyph unicode="&#x2122;" horiz-adv-x="1703" d="M115 1485v117h579v-117h-225v-703h-129v703h-225zM776 782v856l385 -573l385 573v-856h-129v435l-256 -381l-256 381v-435h-129z" />
<glyph unicode="&#x25fc;" horiz-adv-x="1515" d="M0 0v1516h1516v-1516h-1516z" />
</font>
</defs>
</svg>
